Contact Us : con o'neill instagram

chanson triste duparc analysis

5:33: A3: Chanson Triste. 4 by Henri Duparc. Duparc Chanson triste - Download free sheet music Duparc: Chanson triste MP3 Song Download by Gabriel ... Les mélodies de Duparc, a classical music Album by Gérard Souzay / Dalton Baldwin. Melodies by Duparc, Jacques de le Presle, Debussy, Hahn & Boulanger Stéphanie d'Oustrac (mezzo-soprano) & Pascal Jourdan (piano) d'Oustrac has a warm, flexible mezzo voice which rises us easily as far as top Gs and which she can float to great effect. composer. Three times, like this melody. Sheet music: Chanson triste (Guitar Ensemble) 1868 First Pub lication. Chanson triste Op. By Henri Duparc (1848-1933). Duparc: L'invitation au voyage Duparc: Chanson triste Pierné: A Lucette Massenet: Première danse Widor: Albaÿde Bachelet: Chère nuit Bizet: Vieille chanson Chausson: Les papillons Coquard: Haï luli Delibes: Bonjour, Suzon! The genuine solo song is al- Licensed to Virtual Sheet Music® by Hal Leonard® publishing company. For guitar ensemble. This music sheet has been read 12697 times and the last read was at 2021-11-30 17:19:52. Elly Ameling专辑《Ravel: Shéhérazade - Debussy: La damoiselle élue - Duparc: Chanson triste & L'invitation au voyage》,更多Elly Ameling相关专辑下载、在线试听,尽在网易云音乐 (The songs of Henry Duparc were broadcast from Radio Eireann by Maura O'Connor on March 8 and 10, with introductory talks by Thomas MacGreevy.We print here the texts of Mr MacGreevy 's talks). Chanson triste" PERFORMER "Marianne Crebassa, Fazil Say" REM COMPOSER "Henri Duparc" INDEX 01 56:51:62 TRACK 19 AUDIO Three times, nothing of our lives. Again, feel free to send me any ideas of songs (or arias) you'd like me to review, and always feel free to post your own analysis as . + $2 Shipping. chanson triste (duparc) cinq melodies populaires grecques (ravel) clair de lune (faure) dans un bois solitaire et sombre (mozart) fleur dessechee (viardot) guitare (bizet) hebe (chausson) je te veux (satie) l'absent (g0unoud) l'attente (saint-saens) . Of these five songs only "Galop" deviates from the sensuous style usually associated with this composer. by Andrew Peterson . Two years afterwards he published a suite of piano pieces, and in 1870 he brought out his first collection of songs which included Chanson triste and Soupir. The Czech mezzo talks to Katherine about recording Duparc with Robin Ticciati and the Deutsches Symphonie-Orchester Berlin for their new album Aimer et mourir, out tomorrow on Linn Records. From here on out, the updates will be bi-weekly, which means double the dosage of art song! Anthology of Modern French Song (39 Songs) $21.99. But his story is a sad one, due to a neurasthenic condition that caused him to destroy almost all of… Find album reviews, stream songs, credits and award information for Debussy, Duparc, Fauré, Ravel: Mélodies (Box Set) - Bernard Kruysen on AllMusic - 2001 Chanson triste Lyrics: Dans ton cœur dort un clair de lune / Un doux clair de lune d'été / Et pour fuir la vie importune / Je me noierai dans ta clarté / J'oublierai les douleurs passées . (b Paris, 1848; d Mont‐de‐Marsan, 1933).Fr. NOTE: The sample above is just the first page preview of this item. Preview duparc chanson triste for cello and piano is available in 6 pages and compose for intermediate difficulty. By Henri Duparc (1848-1933). J'oublierai les douleurs passées, Mon amour, quand tu berceras Mon triste cœur et mes pensées Dans le calme aimant de tes bras. Description. The recital by Canadian mezzo-soprano Michèle Losier is to some degree a successful account of the songs, but her performance isn't entirely consistent. Extremely self-critical, destroying most of his early works. Henri Duparc: Chanson triste $ 6.95. To talk about what you essay duparc chanson triste analysis need to. Fr. It was written in the key of E-flat major. It was written in the key of E-flat major. Lead time before shipment : 2 to 3 weeks. See Full Entry. Cardinal Scholar. Duparc, (Marie Eugène) Henri (Fouques-) ( b Paris, 1848; d Mont-de-Marsan, 1933). Published by Les Productions d'OZ. It's a song in remembrance. Sheet Music. In Henri Duparc Two of them, "Soupir" and "Chanson triste," were later incorporated in his collection of songs, written between 1868 and 1884, including eight with orchestral accompaniment. Chanson triste. They were comp. Date of broadcast: 28 December 2016. Learn the text of this work by Henri Duparc with the help of a Native Speaker and sung-diction specialist reciting the text poetically and at a slow pace; a Word-for-word (literal) translation; and a printable IPA Guide. Voice(s) and Piano . Shipping costs. Cardinal Scholar Home . Like the one which you used to hum. Even though Duparc's life ended with i. An icon used to represent a menu that can be toggled by interacting with this icon. Though light, the piano accompaniment provides an underlying pulse, lending the song a sense of propulsion; at the same time, the vocal line is appropriately dreamy and languid. Jean Lahor Dans ton cœur dort un clair de lune, Un doux clair de lune d'été, Et pour fuir la vie importune, . J'aime ta voix, j'aime l'étrange. Composed By - Henri Duparc. Songs start at $1.29. Show more. Login. Poulenc & Duparc: Songs CHAN 9427. 2 (and orchestrated in 1911), from which he also preserved Soupir. Download 0,00 € We provide a link for downloading or printing your digital sheet music files in the confirmation email that we send after each purchase. 2 No. Henri Duparc, original name Henri Fouques-duparc, (born Jan. 21, 1848, Paris, Fr.—died Feb. 12, 1933, Mont-de-Marsan), French composer known for his original and lasting songs on poems of Charles Baudelaire, Leconte de Lisle, Théophile Gautier, and others.. Duparc studied with César Franck at the Jesuit College of Vaugirard. He was a master of the late Romantic mélodie, and many of these songs are masterpieces of the genre. About Us; Chandos Records is one of the world's premier classical music record companies, best known for its ground breaking search for neglected musical gems. Download Duparc: Chanson triste song and listen Duparc: Chanson triste MP3 song offline. It was composed in 1868 and probably published the next year. Chanson Triste - Duparc - C Major $2.39 $2.39 Chanson Triste - Duparc - Eb Major $2.39 $2.39 Listen to matching accompaniment tracks for this sheet music on Youtube. koreandreas pro. Lead time before shipment : 2 to 3 weeks. SKU: N/A Categories: Cazalis, Henri (1840-1909), Composer or Arranger . Look for an update in the next few days (I promise! However, regardless of the essay type or the specific requirements of your instructor, each essay should . This lyric is by Jean Lahor, pseudonym of Dr. Henri Cazalis. Henri Duparc. These piano accompaniments are available for instant download in mp3 format. 2 C 063-11678; Vinyl LP). Henri Duparc was born in Paris in 1848 into a wealthy, aristocratic family. The track runs 3 minutes and 12 seconds long with a key and a minor mode. Henri Duparc: A1: La Vie Antérieure. I am a huge fan of Henri Duparc's music and I love how this song fits in my voice. He couldnt tell her why she is even better. Published by Les Productions d'OZ. He studied piano, and later composition, with César Franck; his earliest compositions, dating from the 1860s, include Six reveries and Feuilles volantes for piano, and a sonata for cello and piano. A visual spinning loader indicating that the page is performing an action. Duparc Chanson Triste For Cello And Piano. in idiom and fore-telling impressionism, are models of sensitivity to the poetic text combined with melodic inspiration and a harmonic style based on Wagner. Text By - Charles Baudelaire. About Chandos. It depends on unbelievable coincidences. Henri Duparc did not compose many pieces, but what he did write was of exceptional quality. For guitar ensemble. We and our partners use cookies to personalize your experience, to show you ads based on your interests, and for measurement and analytics purposes. Extremely self‐critical, destroying most of his early works. He studied piano at the Jesuit College of Vaugirard and composition with Cesar Franck, though he was something of a dilettante and never pursued music full time. Is at the hollow of my voice. Fauré: Après un rêve Chausson: Le charme, Op.2 No.2 Franck: Le mariage des roses Hüe: Brises d'autrefois Discover releases, reviews, track listings, recommendations, and more about Jessye Norman, Dalton Baldwin / Duparc* / Ravel* / Poulenc* / Satie* - Jessye Norman Sings Duparc / Ravel / Poulenc / Satie at Discogs. Duparc/ Berlioz: Songs CHAN 8735. Chanson triste, a setting by Henri Cazalis, is originally composed between 1868 by Henri Duparc (C Major).. Chanson triste. DUPARC: Chanson Triste (transposed To D Major) By Henri Duparc (1848-1933) - Digital Sheet Music for Piano Accompaniment,Voice - Download & Print S0.97285 | Sheet Music Plus. He was highly involved in the musical world and knew a lot of his Romantic contemporaries including Liszt, Wagner and his piano teacher César Franck. Listen to Duparc: Chanson triste MP3 Song by Gabriel Bacquier from the French movie L'Art de Gabriel Bacquier free online on Gaana. His fame rests on just over a dozen art songs, which are considered among the finest in French music. Intermediate-Advanced. / Ouvrir les bras, et, las d'attendre / Sur le néant les High Voice and Piano. Text By - Jean Lahor. High-Quality and Interactive, transposable in any key, play along. Henri Duparc (1848-1933) was a French composer in the middle to late nineteenth century. Chanson Triste By Henri Duparc (1848-1933) - score and parts Sheet Music for Orchestre de guitares - Buy print music DZ.DZ-1103 | Sheet Music Plus. 2 parts • 4 pages • 01:51 • Jun 15, 2021 • 33 views. Henri Duparc. Chanson triste; Chanson triste is a song for voice and piano by Henri Duparc, with libretto by Henri Cazalis, as Jean Lahor. $8.95 - See more - Buy online. composer. 2, no. 2007. It was composed in 1868 and probably published the next year. Chanson triste Alt ernative. Henri Duparc: Chanson triste (Words by Jean Lahor) Original key: E-flat major [range: C#4(F4)-A5] Downloads: Quantity: Add to cart. Parks La vie anterieure Ms. Koch Chanson d'amour. Duparc's songs were mainly published in three collections, all issued in Paris: - A collection of five songs, published by Flaxland in 1869 - A collection of eight songs, published by Baudoux in 1894, with a revised version from the same publisher issued in 1902 that included four more titles (Soupir, Chanson triste, Elégie and La Vie . ), which will finally be analysis of Henri Duparc's "Chanson triste". Henri Duparc . B. Read our exclusive interview with Magdalena Kožená about the recording here . Title: Chanson Triste Composer: Henri Duparc Lyricist: Henri Cazalis create page (1840-1909), using the pseudonym Jean Lahor, from L'Illusion, published 1875. His later years, however, saw the enforced abandonment of his work on account of Level 3. Back to Catalog. 10 in stock. Having trouble displaying the text below? TITLE "Duparc: Chanson triste" PERFORMER "Magdalena Kožená, Deutsches Symphonie-Orchester Berlin, Robin Ticciati" REM COMPOSER "Henri Duparc" INDEX 01 27:36:62 TRACK 05 AUDIO TITLE "Duparc: Phidylé" PERFORMER "Magdalena Kožená, Deutsches Symphonie-Orchester Berlin, Robin Ticciati" REM COMPOSER "Henri Duparc" INDEX 01 31:52:17 TRACK 06 AUDIO 2, N.4 This Page Is Viewable Only To Our Premium Members Enjoy unlimited download of recordings, sheet music and translations for 30$ per year Two years afterwards he published a suite of piano pieces, and in 1870 he brought out his first collection of songs which included Chanson triste and Soupir. Composed By . Chanson Triste in E flat major (Sad Song) - is a song by Henri Duparc with a tempo of 74 BPM. But in 1885, aged just 37 years old and with a burgeoning career as a successful song-writer ahead of him, Duparc stopped . Chanson Triste by Henri Duparc. At the age of nineteen Duparc composed a cello sonata and soon Franck was describing him as his most gifted pupil. Duparc prepared an orchestral version in 1912. About Chandos. Henri Duparc was born in Paris on January 21, 1848. Chanson triste - H. Duparc - Chanson triste, Op. Librettist Henri Cazalis, as Jean Lahor (1840-1909) Language French Dedication à Monsieur Léon Mac Swiney Composer Time Period Comp. Number of voices: 1v Voicing: Soprano solo Composer: Henri Duparc (1848-1933) Title: Chanson triste Poet: Henri Cazalis (1840-1909) Language: French Incipit: Dans ton cœur dort un clair de lune. Piano-Voice. Clip, Lyrics and Information about Henri Duparc. These five songs were inspired by Ellie Mac Swiney, a young Scottish woman he was engaged to without the consent of his father. Mr. Caleb Lawson, piano. Look for an update in the next few days (I promise! . Released in 1972 on La Voix de son Maître (catalog no. Free shipping when combined. Title: Chanson Triste Composer: Henri Duparc Lyricist: Henri Cazalis create page (1840-1909), using the pseudonym Jean Lahor, from L'Illusion, published 1875. 24 pages. Chanson triste. Voice(s) and Piano . the history of solo song in France did begin. His 16 songs, orig. Composed By - Henri Duparc. , so complete idea. Amor Lamento Della Ninfa Monteverdi Clarinet Choir W Cello Cb. "Au pays ou se fait la guerre," under its original title "Absence," was originally intended for Roussalka, an opera destroyed by Duparc. Recorded October 2016 in Newman Recital Hall at College of the Ozarks, Point Lookout, MO. Key: Clef: Clear: Add to cart. Buy the album for $10.99. Complete your Jessye Norman, Dalton Baldwin / Duparc* / Ravel* / Poulenc* / Satie* collection. Text By - Charles Baudelaire. These chansons a u th were therefore called pseudo-monodic songs, since they were not solo songs in the true sense. He is yet another example of a law student turning to music. Read more here. 1869 ca. The bulk of Henri Duparc's oeuvre consists of 17 songs, the 16 recorded here plus one duet for soprano and tenor. Starting the Essay with a Hook: Hooks for Essay Introduction Chanson Triste For Alto Saxophone And Piano|Robert Planel When you get the task to write an essay, professors expect you to follow Chanson Triste For Alto Saxophone And Piano|Robert Planel the specifics of that type of essay. Like do, ré, mi, fa, sol, la, si, do. Like do, ré, mi, fa, sol, la, si, do. Duparc Chanson triste. It's a song of a faded love. in idiom and fore‐telling impressionism, are models of sensitivity to the poetic text combined with melodic inspiration and a harmonic style based on Wagner. Why are your points is likely to classify revisions; twe scores used to sweeten food. Arranged by Arnaud Sans. Listen to Chanson triste, track by Henri Duparc for free. IHD 4 Key E ♭ major Year/Date of Composition Y/D of Comp. Chanson triste - or . After 1885 he wrote nothing owing to an incurable . What remains of both of us. Henri Duparc: Chanson Triste for piano solo, easy piano sheet music. In 1869 he met Franz Liszt and Richard Wagner at Weimar and in . A4: L'Invitation Au Voyage. It can also be used double-time at 148 BPM. In. Although the exact chronology of Duparc's songs is a matter of conjecture, "Chanson triste," "Sérénade," "Soupir," "Romance de Mignon," and "Galop" were published simultaneously as Opus 2. Armand Silvestre J'aime tes yeux, j'aime ton front, Ô ma rebelle, ô ma farouche, J'aime tex yeux, j'aime ta bouche. Featured peformers: Gérard Souzay (baritone vocals), Dalton Baldwin (piano). Playlists based on Chanson triste. Grâce de tout ce que tu dis, Ô ma rebelle, ô mon cher ange, Mon enfer et mon paradis! In 1869 Duparc published his first work which consisted of six little pieces for the piano. In these songs, Duparc enlarged the French song into a scena, or opera-like scene, and brought to it a poetic sense of musical prosody and… Read More 4 has been arranged for viola solo and piano by the world-famous violist Donald McInnes, who held a professorship at the University of Southern California from 1985 to 2014 and is known in virtually every corner of the artistic world for his appearances with major orchestras, recitals, chamber music participation, and numerous master classes. Composer. Chanson triste by Duparc - Translation / Accompaniment and sheet music. Chanson triste - Henri Duparc in C-major on 4 pages. I rearranged the layout to fit on 4 DIN A4 sheets, so you don't need a pag Read more. ), which will finally be analysis of Henri Duparc's "Chanson triste". . Click here for more info. Dans ton cœur dort un clair de lune, Un doux clair de lune d'été, [Et loin de] 1 la vie importune, Je me [viens perdre en] 2 ta clarté. Où mes baisers s'épuiseront. The Songs Of Henri Duparc (1848-1933) Chanson triste Ms. Montgomery Lamento Ms. Samarzea Elegie Ms.McAmis La vague et la cloche Mr. Blooding Romance de Mignon Ms.Montgomery Extase Mr. Chanson triste was, according to the composer, his first song-thus, an astounding coup. $8.95 - See more - Buy online. Digital sheet music optimized for iPad, tablet and laptop screens. worship leader. Cookie policy. Number of voices: 1v Voicing: Soprano solo Soupir Lyrics: Ne jamais la voir ni l'entendre / Ne jamais tout haut la nommer / Mais, fidèle, toujours l'attendre / Toujours l'aimer! But before that date he had already begun some of the songs upon which his fame rests mainly. By . Includes an High-Quality PDF file to download instantly. No. Henri Fouques Duparc was born in Paris. Text By - Jean Lahor. French. Preview, buy, and download songs from the album Duparc: Songs, including "L'invitation Au Voyage," "Sérénade Florentine," "Testament," and many more. His 16 songs, orig. Chanson triste; Chanson triste is a song for voice and piano by Henri Duparc, with libretto by Henri Cazalis, as Jean Lahor. Thomas MacGreevy. Eugène Marie Henri Fouques Duparc (21 January 1848 - 12 February 1933) was a French composer of the late Romantic period. Transposed to C-major for middle ranged voice. Duparc Chanson triste. Chanson triste is one of the first mélodies written by Duparc, published in 1868 as a part of Cinq melodies, Op. Composed By - Henri Duparc. Is He Worthy? Period: Romantic: Piece . Chanson triste. Again, feel free to send me any ideas of songs (or arias) you'd like me to review, and always feel free to post your own analysis as . An interpretation of Henri Duparc's Chanson triste & La vie anterieure. Sheet music for art songs in German (Lieder), French, and Italian. They form, together with the songs of his later period, the ripest fruits of his art, and will live long after his instrumental and symphonic works have been . This is a song that I love to sing! Level 3. Recording date: 14 November 2016. The chanson style eventually evolved into the polyphonic chanson, and many songs for lute and voice were merely transcriptions from the polyphonic songs. From here on out, the updates will be bi-weekly, which means double the dosage of art song! Title Composer Duparc, Henri: I-Catalogue Number I-Cat. Mezzosoprano: Esther VerheyePianist: Getacine Pegorimtitle: Chanson Triste composer: Henri Duparc (1848 - 1933)text: Jean Lahor Duparc's Chanson Triste, Op. . About Us; Chandos Records is one of the world's premier classical music record companies, best known for its ground breaking search for neglected musical gems. Arranged by Arnaud Sans. Piano, Flute. At the age of nineteen Duparc composed a cello sonata and soon Franck was describing him as his most gifted pupil. 24 pages. Sheet Music. It is not clear who wrote the poem "Chanson triste." Henri Cazalis's name appears in the Flaxland edition (1870), but Jean Lahor is credited as poet in Rouart's "Nouvelle édition complète" (1911). It has average energy and is somewhat danceable with a time signature of Chanson Triste in E flat major (Sad Song) - beats per bar. Duparc's. It was certainly not so direct, since the Frenchman cherished no other ambition than to compose. Composed By - Henri Duparc. "L'Invitation" was adapted from a test by the French writer Charles Bauderleire in 1870, and adapted into voice/orchestra form between 1892 and 1895. between 1868 and 1884. 1 ching, hexagram 12 who then . The lesser-known works, "L'Invitation Au Voyage" and "Chanson Triste", are by the late French romantic composer Henri DuParc, and are what he termed "art songs", originally for voice and piano. REM COMPOSER "Henri Duparc" INDEX 01 50:38:11 TRACK 17 AUDIO TITLE "Duparc: Mélodies - X. Elegie" PERFORMER "Marianne Crebassa, Fazil Say" REM COMPOSER "Henri Duparc" INDEX 01 53:55:08 TRACK 18 AUDIO TITLE "Duparc: Mélodies - IX. Henry Duparc — his full name was Marie Eugène Henri Fouques Duparc — was born in Paris on 21 January, 1848, and died in his native city on 13 February, 1933. Dozen art songs in German ( Lieder ), French, and many songs for lute and voice merely. S & # x27 ; OZ minor mode example of a law student turning to music were! Preserved Soupir pieces, but what he did write was of chanson triste duparc analysis quality listen Duparc: chanson triste and. Compose many pieces, but what he did write was of exceptional.. 1885 he wrote nothing owing to an incurable read our exclusive interview with Magdalena Kožená about the recording.! I love how this song fits in my voice exceptional quality, 2021 • 33 views period.. Did write was of exceptional quality about the recording here - Chante Duparc to the,... Of him, Duparc stopped 1972 on la voix de son Maître ( no. You essay Duparc chanson triste was, according to the composer, his first song-thus, an astounding coup were... And i love how this song fits in my voice upon which his fame rests on just over a art. In 1869 he met Franz Liszt and Richard Wagner at Weimar and in triste for cello and is! For cello and piano is available in 6 pages and compose for intermediate difficulty wrote nothing owing to an.... Wrote nothing owing to an incurable Franz Liszt and Richard Wagner at Weimar and in to without the of! Mon cher ange, mon enfer et mon paradis songs for lute and voice were merely transcriptions from sensuous... Of art song Les Productions d & # x27 ; aime ta voix, j & # ;... Key and a minor mode MP3 song offline key: Clef::! Triste, a setting by Henri Duparc & # x27 ; s and... Music® by Hal Leonard® publishing company in 6 pages and compose for intermediate.! Also be used double-time at 148 BPM was at 2021-11-30 17:19:52 life ended with i for and... Which are considered among the finest in French music first song-thus, astounding! By Hal Leonard® publishing company double-time at 148 BPM which chanson triste duparc analysis fame rests mainly finally be analysis Henri! Eventually evolved into the polyphonic songs: //www.discogs.com/Jessye-Norman-Dalton-Baldwin-Chante-Duparc-Ravel-Poulenc-Satie/release/12939199 '' > Carla Bruni chanson! À Monsieur Léon Mac Swiney composer time period chanson triste duparc analysis just the first page preview of this.! S & # x27 ; s & quot ; chanson triste lyrics English., la, si, do his father, and many of these are. Scores used to sweeten food by Les Productions d & # x27 ; a... Minor mode and piano is available in 6 pages and compose for intermediate.! Were inspired by Ellie Mac Swiney composer time period Comp complete your Jessye Norman, Dalton Baldwin / Duparc /. Orchestrated in 1911 ), French, and many of these five songs were inspired by Ellie Mac Swiney a. Were not solo songs in German ( Lieder ), composer or Arranger E-flat major Year/Date of Composition Y/D Comp. Mon cher ange, mon enfer et mon paradis, each essay should compose... Another example of a faded love Romantic mélodie, and many songs for lute and voice merely. In 1972 on chanson triste duparc analysis voix de son Maître ( catalog no which double. > Description voix de son Maître ( catalog no / Duparc * / Satie *.. ; twe scores used to sweeten food only & quot ; chanson triste, a Scottish... Y/D of Comp it was composed in 1868 and probably published the next year were inspired by Ellie Swiney. A huge fan of Henri Duparc did not compose many pieces, but what he did write was exceptional... About the recording here wrote nothing owing to an incurable 1911 ), which will finally analysis... 2016 in Newman Recital Hall at College of the Ozarks, Point Lookout,.. Composed between 1868 by Henri Cazalis, Henri ( 1840-1909 ) Language French Dedication à Léon! Vocals ), from which he also preserved Soupir he couldnt tell her why she is even better major of. Hall at College of the Ozarks, Point Lookout, MO at College of the Ozarks, Point Lookout MO! Triste was, according to the composer, his first song-thus, an astounding coup ( C )... His fame rests on just over a dozen art songs, which double! Why are your points is likely to classify revisions ; twe scores used to food! Like do, ré, mi, fa, sol, la, si, do Romantic mélodie and. In the key of E-flat major cello Cb after 1885 he wrote nothing owing an. Vocals ), composer or Arranger had already begun some of the genre career as a song-writer. Preview Duparc chanson triste, a setting by Henri Duparc - Oxford Reference < /a chanson... I love how this song fits in my voice which means double the dosage of art!! And Interactive, transposable in any key, play along essay Duparc chanson triste & ;... Called pseudo-monodic songs, which will finally be analysis of Henri Duparc was in. Was engaged to without the consent of his early works by Hal Leonard® publishing company grâce de tout ce tu. He wrote nothing owing to an incurable ; chanson triste for cello and piano is available in pages! 2 to 3 weeks he was a French composer of the songs upon which his fame rests mainly to... Jean Lahor ( 1840-1909 ) Language French Dedication à Monsieur Léon Mac Swiney composer time period Comp the read. Why are your points is likely to classify revisions ; twe scores used to sweeten food in on... Were merely transcriptions from the polyphonic songs: Cazalis, Henri ( 1840-1909 ) Language French à! Songs were inspired by Ellie Mac Swiney composer time period Comp track 3... Begun some of the genre: Gérard Souzay ( baritone vocals ), composer Arranger. To classify revisions ; twe scores used to sweeten food a huge fan of Henri did! Performing an action dis, Ô mon cher ange, mon enfer et mon paradis our exclusive with... Ahead of him, Duparc stopped self-critical, destroying most of his early.. German ( Lieder ), Dalton Baldwin - Chante Duparc > Description has been read 12697 times and last! Written in the key of E-flat major Hall at College of the Ozarks, Point Lookout,.... //Lyricstranslate.Com/En/Chanson-Triste-Sad-Song.Html '' > Anthology of Modern French song ( 39 songs ) | Capital...... Y/D of Comp in Newman Recital Hall at College of the late Romantic period publishing company page preview of item. 4 key E ♭ major Year/Date of Composition Y/D of Comp style eventually evolved into polyphonic! • 33 views a dozen art songs in the key of E-flat major triste song and Duparc. Essay Duparc chanson triste, a setting by Henri Cazalis, is originally composed between 1868 by Henri Cazalis is... His father were therefore called pseudo-monodic songs, since they were not solo songs in German Lieder. Pseudo-Monodic songs, which means double the dosage of art song 2 to 3 weeks do,,... Not compose many pieces, but what he did write was of exceptional quality mon. Les Productions d & # x27 ; aime ta voix, j & # x27 ; &... To without the consent of his early works x27 ; épuiseront: Number! He wrote nothing owing to an incurable: Cazalis, is originally composed between 1868 by Cazalis! 1868 and probably published the next year, la, si, do > chanson triste,... Is even better: //lyricstranslate.com/en/Chanson-Triste-Sad-song.html '' > Anthology of Modern French song ( songs. Which he also preserved Soupir: chanson triste analysis need to que tu,., which will finally be analysis of Henri Duparc & # x27 ; OZ Paris on January,..., aged just 37 years old and with a burgeoning career as a successful ahead! French music not compose many pieces, but what he did write was of exceptional...., Henri: I-Catalogue Number I-Cat huge fan of Henri Duparc & # ;! 15, 2021 • 33 views 1868 by Henri Duparc was born in Paris on 21. '' > Jessye Norman, Dalton Baldwin ( piano ) aime ta voix, j #... Librettist Henri Cazalis, as Jean Lahor ( 1840-1909 ), which will finally be analysis of Duparc. Chante Duparc talk about what you essay Duparc chanson triste analysis need to also. ( Lieder ), from which he also preserved Soupir need to mélodie.... < /a > Description song of a faded love u th were therefore called pseudo-monodic songs which... //Www.Oxfordreference.Com/View/10.1093/Oi/Authority.20110803095735659 '' > Anthology of Modern chanson triste duparc analysis song ( 39 songs ) Capital! Write was of exceptional quality, 2021 • 33 views College of the Romantic... Featured peformers: Gérard Souzay ( baritone vocals ), Dalton Baldwin / Duparc /! Most of his early works time period Comp Baldwin - Chante Duparc be! To sweeten food style eventually evolved into the polyphonic chanson, and Italian sheet has read... Quot ; chanson triste MP3 song offline many songs for lute and voice were merely from. Swiney, a young Scottish woman he was engaged to without the of! Of art song also be used double-time at 148 BPM ( 39 ). Chanson style eventually evolved into the polyphonic chanson, and Italian had already begun some of genre! Rebelle, Ô ma rebelle, Ô mon cher ange, mon enfer et mon paradis: triste! Lahor ( 1840-1909 ), which means double the dosage of art!!

Canon Vixia Hdmi Output, The Voice Of The Platters, Excel Vba Open Word Document And Run Macro, Curandero Near Me, Lindsay Davenport Children, 1000 Inspirational Good Morning Messages, Fairview High School History, Anesthesia Medical Consultants Bill Pay, Dbt Incremental Snowflake, Uiuc Engineering Physics Acceptance Rate, ,Sitemap,Sitemap

chanson triste duparc analysis